Try Our New BETA Version
GO
(navigation image)
Home Audio Books & Poetry | Community Audio | Computers & Technology | Grateful Dead | Live Music Archive | Music, Arts & Culture | Netlabels | News & Public Affairs | Non-English Audio | Podcasts | Radio Programs | Spirituality & Religion
Search: Advanced Search
Anonymous User (login or join us)
Upload

Listen to audio

item image

Stream (help[help])

VBR M3U
MP3 via M3U

Play / Download (help[help])

VBR ZIP

Ogg Vorbis

Lossless zip


All Files: HTTPS Torrent (2/0)

Resources

Bookmark

Goosepimp OrchestraGoosepimp Orchestra Live at The MiddleEast (Downstairs) on 2010-12-03 (December 3, 2010)

something has gone horribly wrong 8-p
Prefer flash? · Embed · Questions/Feedback?


Collection: GoosepimpOrchestra
Band/Artist: Goosepimp Orchestra
Date: December 3, 2010 (check for other copies)
Venue: The MiddleEast (Downstairs)
Location: Cambridge, MA

Source: Schoeps MK22>KC5>CMC6>Sonosax SX-M2>Apogee Mini-me(aes out,24bit/96khz)>COAX>Edirol R-44
Lineage: SDHC Card>USB>Macbook Pro>Wave Editor(tracking,fades,resample(izotope)/dither(mbit+)to 16 bit/44.1k)>XAct(FLAC 8,ffp,fix sbe)
Taped by: Andy Murray
Transferred by: Andy Murray


Description

???

Notes

Goosepimp Orchestra
2010-12-03
Middleeast Downstairs
Cambridge, MA

Recorded and transferred by Andy Murray

ORTF On stage DFC
Schoeps MK22>KC5>CMC6>Sonosax SX-M2>Apogee Mini-me(aes out 24bit/96khz)>COAX>Edirol R-44
SDHC Card>usb>Macbook Pro>Wave Editor(tracking,fades,resample(izotope)/dither(mbit+) to 16bit/44.1khz)>XAct(FLAC 8,ffp,fix sbe)

1 Set
1 Disc

Cobill with ClapTrap and Dopapod

length expanded size cdr WAVE problems fmt ratio filename
0:35.74 6348092 B --- -- ----- goosepimp2010-12-03_mk22_1644_d1t01.wav
14:37.14 154735772 B --- -- ----- goosepimp2010-12-03_mk22_1644_d1t02.wav
7:26.11 78700316 B --- -- ----- goosepimp2010-12-03_mk22_1644_d1t03.wav
8:46.03 92793500 B --- -- ----- goosepimp2010-12-03_mk22_1644_d1t04.wav
10:30.30 111202604 B --- -- ----- goosepimp2010-12-03_mk22_1644_d1t05.wav
6:19.68 67015580 B --- -- ----- goosepimp2010-12-03_mk22_1644_d1t06.wav
7:06.20 75193484 B --- -- ----- goosepimp2010-12-03_mk22_1644_d1t07.wav
6:22.11 67410716 B --- -- ----- goosepimp2010-12-03_mk22_1644_d1t08.wav
9:39.01 102137996 B --- -- ----- goosepimp2010-12-03_mk22_1644_d1t09.wav
8:57.01 94729196 B --- -- ----- goosepimp2010-12-03_mk22_1644_d1t10.wav
80:20.08 850267256 B 1.0000 (10 files)

Individual Files

Whole Item FormatSize
[generated M3U] M3U Stream 
[generated VBR MP3 ZIP] VBR MP3 ZIP Stream 
Audio Files Flac VBR MP3 Ogg Vorbis PNG
d1t01 2.8 MB 
879.1 KB 
394.5 KB 
6.9 KB 
d1t02 84.2 MB 
21.0 MB 
9.6 MB 
9.3 KB 
d1t03 37.6 MB 
10.7 MB 
4.9 MB 
9.2 KB 
d1t04 46.5 MB 
12.9 MB 
5.7 MB 
10.1 KB 
d1t05 55.8 MB 
15.3 MB 
6.8 MB 
10.1 KB 
d1t06 34.5 MB 
9.3 MB 
4.1 MB 
10.1 KB 
d1t07 37.2 MB 
10.2 MB 
4.7 MB 
9.7 KB 
d1t08 36.2 MB 
9.2 MB 
4.2 MB 
11.2 KB 
d1t09 52.9 MB 
14.0 MB 
6.3 MB 
9.4 KB 
d1t10 48.8 MB 
12.8 MB 
5.8 MB 
9.1 KB 
Information FormatSize
goosepimp2010-12-03.Schoeps_mk22_16bit.ffp Flac FingerPrint 740.0 B 
goosepimp2010-12-03.Schoeps_mk22_16bit.md5 Checksums 750.0 B 
goosepimp2010-12-03.Schoeps_mk22_16bit_files.xml Metadata [file] 
goosepimp2010-12-03.Schoeps_mk22_16bit_meta.xml Metadata 3.3 KB 
Other Files Archive BitTorrent Text
goosepimp2010-12-03.Schoeps_mk22_16bit_archive.torrent 33.5 KB 
ffp 740.0 B 
info 2.1 KB 

Be the first to write a review
Downloaded 167 times
Reviews


Terms of Use (31 Dec 2014)